[HD/DVDRip] White House Down (2013) R6 AC3 MURDER, Online Descargar Gratis mediafire



[HD/DVDRip] White House Down (2013) R6 AC3 MURDER, Online Descargar Gratis mediafire descargar dvdrip 1 link latino, full HD, castellano, subtitulada, rmvb, HDRip, BRRip, 1080p, putlocker, mediafire, torrent, ver online White House Down (2013) [R6 AC3 MURDER]


White House Down (2013) [R6 AC3 MURDER]






Complete name : White House Down 2013 R6 DVDSCR AC3 MURDER.mkv
Format : Matroska
Format version : Version 4 / Version 2
File size : 1.47 GiB
Duration : 2h 4mn
Overall bit rate : 1 687 Kbps
Encoded date : UTC 2013-08-04 21:16:58

Video
ID : 1
Format : AVC
Format/Info : Advanced Video Codec
Format profile : [email protected]
Format settings, CABAC : No
Format settings, ReFrames : 1 frame
Codec ID : V_MPEG4/ISO/AVC
Duration : 2h 4mn
Bit rate : 1 525 Kbps
Width : 640 pixels
Height : 296 pixels
Display aspect ratio : 2.35:1
Frame rate mode : Constant
Frame rate : 29.970 fps
Color space : YUV
Chroma subsampling : 4:2:0
Bit depth : 8 bits
Scan type : Progressive
Bits/(Pixel*Frame) : 0.269
Stream size : 1.33 GiB (90%)
Writing library : 
Default : Yes
Forced : No

Audio
ID : 2
Format : AC-3
Format/Info : Audio Coding 3
Mode extension : CM (complete main)
Format settings, Endianness : Big
Codec ID : A_AC3
Duration : 2h 4mn
Bit rate mode : Constant
Bit rate : 128 Kbps
Channel(s) : 2 channels
Channel positions : Front: L R
Sampling rate : 44.1 KHz
Bit depth : 16 bits
Compression mode : Lossy
Stream size : 114 MiB (8%)
Default : Yes
Forced : No


















Descargar {TÍTULO DEL POST} Gratis




Download:


Código:
http://***********.net/file/x2oxsp0b/White%20House%20Down%202013%20R6%20DVDSCR%20AC3%20MURDER.mkv
or

http://***********.net/file/sezfifdu/White%20House%20Down%202013%20R6%20DVDSCR%20AC3%20MURDER.part1.rar

http://***********.net/file/ptq0phms/White%20House%20Down%202013%20R6%20DVDSCR%20AC3%20MURDER.part2.rar

White House Down subtitulada, descargar White House Down dvdrip, descargar White House Down mediafire, descargar White House Down putlocker, descargar White House Down 1080p, descargar White House Down español latino, descargar White House Down castellano, descargar White House Down rmvb, descargar [HD/DVDRip] White House Down (2013) R6 AC3 MURDER, Online Descargar Gratis mediafire



Deja un comentario