[HD/DVDRip] Descargar Parker (2013) (HD1080 mkv) (DDMulti) Gratis en Cast/Ing Online Descargar Gratis mediafire


^^^Descargar [HD/DVDRip] Descargar Parker (2013) (HD1080 mkv) (DDMulti) Gratis en Cast/Ing Online Descargar Gratis mediafire^^^

[HD/DVDRip] Descargar Parker (2013) (HD1080 mkv) (DDMulti) Gratis en Cast/Ing Online Descargar Gratis mediafire descargar dvdrip 1 link latino, full HD, castellano, subtitulada, rmvb, HDRip, BRRip, 1080p, putlocker, mediafire, torrent, ver online Descargar Parker (2013) (HD1080 mkv) (DDMulti) Gratis en Cast/Ing



Descargar {Parker} Gratis en {Idioma: Español / Ingles + Subt} {HD1080p}








Cita:




Título original Parker
Año 2013
Duración 118 min.
País Estados Unidos
Director Taylor Hackford
Guión John J. McLaughlin (Libros: Donald E. Westlake)
Música David Buckley
Fotografía J. Michael Muro
Reparto Jason Statham, Jennifer Lopez, Nick Nolte, Michael Chiklis, Clifton Collins Jr., Daniel Bernhardt
Productora Incentive Filmed Entertainment
Género Acción. Thriller | Crimen






Cita:




General
Complete name : /par_ker_2013_by_mjasx.mkv
Format : Matroska
Format version : Version 4 / Version 2
File size : 14.1 GiB
Duration : 1h 58mn
Overall bit rate : 17.0 Mbps
Writing application : mkvmerge v6.0.0 (‘Coming Up For Air’) built on Jan 20 2013 09:52:00
Writing library : libebml v1.3.0 + libmatroska v1.4.0

Video
ID : 1
Format : AVC
Format/Info : Advanced Video Codec
Format profile : [email protected]
Format settings, CABAC : Yes
Format settings, ReFrames : 5 frames
Codec ID : V_MPEG4/ISO/AVC
Duration : 1h 58mn
Bit rate : 15.0 Mbps
Width : 1 920 pixels
Height : 800 pixels
Display aspect ratio : 16:9
Original display aspect ratio : 2.40:1
Frame rate mode : Constant
Frame rate : 23.976 fps
Color space : YUV
Chroma subsampling : 4:2:0
Bit depth : 8 bits
Scan type : Progressive
Bits/(Pixel*Frame) : 0.407
Stream size : 12.2 GiB (86%)
Writing library : x264 core 130

Audio #1
ID : 2
Format : AC-3
Format/Info : Audio Coding 3
Mode extension : CM (complete main)
Format settings, Endianness : Big
Codec ID : A_AC3
Duration : 1h 58mn
Bit rate mode : Constant
Bit rate : 448 Kbps
Channel(s) : 6 channels
Channel positions : Front: L C R, Side: L R, LFE
Sampling rate : 48.0 KHz
Bit depth : 16 bits
Compression mode : Lossy
Stream size : 380 MiB (3%)
Title : Castellano
Language : Spanish
Default : Yes
Forced : No

Audio #2
ID : 3
Format : DTS
Format/Info : Digital Theater Systems
Mode : 16
Format settings, Endianness : Big
Codec ID : A_DTS
Duration : 1h 58mn
Bit rate mode : Constant
Bit rate : 1 509 Kbps
Channel(s) : 6 channels
Channel positions : Front: L C R, Side: L R, LFE
Sampling rate : 48.0 KHz
Bit depth : 24 bits
Compression mode : Lossy
Stream size : 1.25 GiB (9%)
Title : Ingles DTS
Language : English
Default : No
Forced : No

Text #1
ID : 4
Format : UTF-8
Codec ID : S_TEXT/UTF8
Codec ID/Info : UTF-8 Plain Text
Title : Castellano Forzados
Language : Spanish
Default : Yes
Forced : Yes

Text #2
ID : 5
Format : UTF-8
Codec ID : S_TEXT/UTF8
Codec ID/Info : UTF-8 Plain Text
Title : Castellano Completos
Language : Spanish
Default : No
Forced : No

Text #3
ID : 6
Format : UTF-8
Codec ID : S_TEXT/UTF8
Codec ID/Info : UTF-8 Plain Text
Title : Ingles Completos
Language : English
Default : No
Forced : No






Cita:




Parker (Jason Statham) es un ladrón con un código ético muy particular: sólo roba a los ricos. Tras una operación, es traicionado por su equipo y dado por muerto. Entonces decide adoptar una nueva identidad; lo que se propone, con la ayuda de una hermosa mujer (Jennifer Lopez), es apoderarse del botín y que sus antiguos socios lamenten haberse cruzado en su camino.










…..


Descargar Parker subtitulada, descargar Descargar Parker dvdrip, descargar Descargar Parker mediafire, descargar Descargar Parker putlocker, descargar Descargar Parker 1080p, descargar Descargar Parker español latino, descargar Descargar Parker castellano, descargar Descargar Parker rmvb, descargar [HD/DVDRip] Descargar Parker (2013) (HD1080 mkv) (DDMulti) Gratis en Cast/Ing Online Descargar Gratis mediafire

Descargar:

  • @lntpower com loc:ES

^^^Descargar [HD/DVDRip] Descargar Parker (2013) (HD1080 mkv) (DDMulti) Gratis en Cast/Ing Online Descargar Gratis mediafire^^^

Deja un comentario