[HD/DVDRip] Byzantium (2012) WEB DL, AC3 BiTo, Online Descargar Gratis 720p


^^^Descargar [HD/DVDRip] Byzantium (2012) WEB DL, AC3 BiTo, Online Descargar Gratis 720p^^^

[HD/DVDRip] Byzantium (2012) WEB DL, AC3 BiTo, Online Descargar Gratis 720p descargar dvdrip 1 link latino, full HD, castellano, subtitulada, rmvb, HDRip, BRRip, 1080p, putlocker, mediafire, torrent, ver online Byzantium (2012) [WEB-DL] [x264 AC3 – BiTo]


Byzantium (2012) [WEB-DL] [x264 AC3 – BiTo]






{sinopsis, trama, información, calidad}
http://new.descargarlatino.org/full.php?h=aHR0cDovL3d3dy5pbWRiLmNvbS90aXRsZS90dDE1MzE5MDEv

Source: Elite Thx
Sample: Yes
Audio: 6Ch @ English
Codec: x264
Container: Mkv

Video
ID : 1
Format : AVC
Format/Info : Advanced Video Codec
Format profile : [email protected]
Format settings, CABAC : Yes
Format settings, ReFrames : 4 frames
Codec ID : V_MPEG4/ISO/AVC
Duration : 1h 58mn
Bit rate : 1 200 Kbps
Width : 720 pixels
Height : 304 pixels
Display aspect ratio : 2.35:1
Original display aspect ratio : 2.35:1
Frame rate mode : Constant
Frame rate : 24.000 fps
Color space : YUV
Chroma subsampling : 4:2:0
Bit depth : 8 bits
Scan type : Progressive
Bits/(Pixel*Frame) : 0.228
Stream size : 992 MiB (74%)
Writing library : x264 core 120


Audio
ID : 2
Format : AC-3
Format/Info : Audio Coding 3
Mode extension : CM (complete main)
Format settings, Endianness : Big
Codec ID : A_AC3
Duration : 1h 58mn
Bit rate mode : Constant
Bit rate : 384 Kbps
Channel(s) : 6 channels
Channel positions : Front: L C R, Side: L R, LFE
Sampling rate : 48.0 KHz
Bit depth : 16 bits
Compression mode : Lossy
Stream size : 324 MiB (24%)
Language : English
Default : Yes
Forced : No



{trailer YouTube}
www.youtube.com/watch?v=73BA_ocQoDg


{capturas}













Descargar {TÍTULO DEL POST} Gratis



{enlaces de descarga}

Sample:


Código:
http://***********.net/file/c29t62j0/sample.mkv
Download:


Código:
http://***********.net/file/7zngh77f/Byzantium.2012.WEB-DL.x264.AC3%20-%20BiTo.mkv
or

http://***********.net/file/dvz8xkz9/Byzantium.2012.WEB-DL.x264.AC3%20-%20BiTo.part1.rar

http://***********.net/file/wsplwfi3/Byzantium.2012.WEB-DL.x264.AC3%20-%20BiTo.part2.rar

Byzantium subtitulada, descargar Byzantium dvdrip, descargar Byzantium mediafire, descargar Byzantium putlocker, descargar Byzantium 1080p, descargar Byzantium español latino, descargar Byzantium castellano, descargar Byzantium rmvb, descargar [HD/DVDRip] Byzantium (2012) WEB DL, AC3 BiTo, Online Descargar Gratis 720p


^^^Descargar [HD/DVDRip] Byzantium (2012) WEB DL, AC3 BiTo, Online Descargar Gratis 720p^^^

Deja un comentario