[HD/DVDRip] Descargar One Direction Best Song Ever Full HD 1080 p Estreno Gratis Online Descargar Gratis español latino



[HD/DVDRip] Descargar One Direction Best Song Ever Full HD 1080 p Estreno Gratis Online Descargar Gratis español latinodescargar español latino dvdrip, 1 link, BRRip, HDRip, rmvb, castellano, subtitulada, torrent, mediafire, putlocker, ver online Descargar One Direction – Best Song Ever Full HD 1080 p Estreno Gratis





Hola a todos les dejo el ultimo video de One Direction en full hd 1080p





Cita:




General
Complete name : C:\Users\bangho\Desktop\Downloads\Video\One Direction – Best Song Ever.mp4
Format : MPEG-4
Format profile : Base Media / Version 2
Codec ID : mp42
File size : 159 MiB
Duration : 6mn 12s
Overall bit rate mode : Variable
Overall bit rate : 3 576 Kbps
Encoded date : UTC 2013-07-17 16:57:07
Tagged date : UTC 2013-07-17 16:57:07
gsst : 0
gstd : 372981
gssd : B4A7D02C4HH1374519153931545
gshh : r13—eze03s09.c.youtube.com

Video
ID : 1
Format : AVC
Format/Info : Advanced Video Codec
Format profile : [email protected]
Format settings, CABAC : Yes
Format settings, ReFrames : 1 frame
Codec ID : avc1
Codec ID/Info : Advanced Video Coding
Duration : 6mn 12s
Bit rate : 3 382 Kbps
Maximum bit rate : 13.9 Mbps
Width : 1 920 pixels
Height : 1 080 pixels
Display aspect ratio : 16:9
Frame rate mode : Constant
Frame rate : 23.976 fps
Color space : YUV
Chroma subsampling : 4:2:0
Bit depth : 8 bits
Scan type : Progressive
Bits/(Pixel*Frame) : 0.068
Stream size : 150 MiB (95%)
Tagged date : UTC 2013-07-17 16:57:27

Audio
ID : 2
Format : AAC
Format/Info : Advanced Audio Codec
Format profile : LC
Codec ID : 40
Duration : 6mn 12s
Bit rate mode : Variable
Bit rate : 192 Kbps
Maximum bit rate : 202 Kbps
Channel(s) : 2 channels
Channel positions : Front: L R
Sampling rate : 44.1 KHz
Compression mode : Lossy
Stream size : 8.53 MiB (5%)
Title : IsoMedia File Produced by Google, 5-11-2011
Encoded date : UTC 2013-07-17 16:57:20
Tagged date : UTC 2013-07-17 16:57:27


http://mf.descargarlatino.org/full.php?h=aHR0cDovL2FkZi5seS9TaTlsaA==



lucianomza

Descargar One Direction – Best DVDRip latino, descargar Descargar One Direction – Best castellano, descargar Descargar One Direction – Best subtitulada, descargar Descargar One Direction – Best DVDRip gratis, descargar Descargar One Direction – Best descargar latino, descargar Descargar One Direction – Best putlocker, descargar Descargar One Direction – Best MEGA, descargar Descargar One Direction – Best 1 link torrent, descargar [HD/DVDRip] Descargar One Direction Best Song Ever Full HD 1080 p Estreno Gratis Online Descargar Gratis español latino



Descargar:

  • descargar best song ever mp4

Deja un comentario